Տաշիր 2011 / Tashir 2011 / Ташир 2011

Концерты,клипы,музыкальное видео

Տաշիր 2011 / Tashir 2011 / Ташир 2011

Сообщение mirango99 » 03 апр 2011, 23:37

  • Постеры
  • Скриншоты
Продолжительность: part.1)02:33:07/part.2)01:03:37/part.3)01:22:38/
Дата выхода: 2011
Оригинальное название: Տաշիր 2011
Жанр: մրցանակաբաշխություն / вручение номинаций
О фильме: 6-ая Национальная Премия в области армянского шоу-бизнеса Ташир 2011 / Armenian Music Awards "Tashir 2011"
Страна:
Формат аудио: MP2
Формат видео: AVI
Качество: SATRip
Видео: MPEG2 Video 704x576 (4:3) 25.00fps 15000kbps
Аудио: MPEG Audio 48000Hz stereo 128kbps
Язык:
Дополнительно: Առաջին 2 մասնակիցների (Շուշան Պետրոսյանի ու Լարիսա Դոլինայի) ձայնագրությունն բացակայում է արբանյակի անսարկության պատճառով:Հետեվաբար ձայնագրությունն սկսվում է Արմենչիկի համերգով:
General
Complete name : D:\Torrents\Tashir 2011 by Միրանչո 99\Tashir 2011 part1 by Միրանչո 99.mpg
Format : MPEG-PS
File size : 1.73 GiB
Duration : 2h 33mn
Overall bit rate : 1 615 Kbps

Video
ID : 224 (0xE0)
Format : MPEG Video
Format version : Version 2
Format profile : Main@Main
Format settings, BVOP : Yes
Format settings, Matrix : Default
Format settings, GOP : M=3, N=30
Duration : 2h 33mn
Bit rate mode : Variable
Bit rate : 1 455 Kbps
Nominal bit rate : 15.0 Mbps
Width : 704 pixels
Height : 576 pixels
Display aspect ratio : 4:3
Frame rate : 25.000 fps
Standard : PAL
Color space : YUV
Chroma subsampling : 4:2:0
Bit depth : 8 bits
Scan type : Interlaced
Scan order : Top Field First
Bits/(Pixel*Frame) : 0.144
Stream size : 1.56 GiB (90%)

Audio
ID : 192 (0xC0)
Format : MPEG Audio
Format version : Version 1
Format profile : Layer 2
Duration : 2h 33mn
Bit rate mode : Constant
Bit rate : 128 Kbps
Channel(s) : 2 channels
Sampling rate : 48.0 KHz
Video delay : -1s 298ms
Stream size : 140 MiB (8%)

[General
Complete name : D:\Torrents\Tashir 2011 by Միրանչո 99\Tashir 2011 part2 by Միրանչո 99.mpg
Format : MPEG-PS
File size : 791 MiB
Duration : 1h 3mn
Overall bit rate : 1 738 Kbps

Video
ID : 224 (0xE0)
Format : MPEG Video
Format version : Version 2
Format profile : Main@Main
Format settings, BVOP : Yes
Format settings, Matrix : Default
Format settings, GOP : M=3, N=28
Duration : 1h 3mn
Bit rate mode : Variable
Bit rate : 1 575 Kbps
Nominal bit rate : 15.0 Mbps
Width : 704 pixels
Height : 576 pixels
Display aspect ratio : 4:3
Frame rate : 25.000 fps
Standard : PAL
Color space : YUV
Chroma subsampling : 4:2:0
Bit depth : 8 bits
Scan type : Interlaced
Scan order : Top Field First
Bits/(Pixel*Frame) : 0.155
Stream size : 716 MiB (91%)

Audio
ID : 192 (0xC0)
Format : MPEG Audio
Format version : Version 1
Format profile : Layer 2
Duration : 1h 3mn
Bit rate mode : Constant
Bit rate : 128 Kbps
Channel(s) : 2 channels
Sampling rate : 48.0 KHz
Video delay : -1s 682ms
Stream size : 58.2 MiB (7%)

General
Complete name : C:\Users\Hrachya\Desktop\Tashir 2011 part3 by Միրանչո 99.mpg
Format : MPEG-PS
File size : 1.19 GiB
Duration : 1h 22mn
Overall bit rate : 2 053 Kbps

Video
ID : 224 (0xE0)
Format : MPEG Video
Format version : Version 2
Format profile : Main@Main
Format settings, BVOP : Yes
Format settings, Matrix : Default
Format settings, GOP : M=3, N=30
Duration : 1h 22mn
Bit rate mode : Variable
Bit rate : 1 884 Kbps
Nominal bit rate : 15.0 Mbps
Width : 704 pixels
Height : 576 pixels
Display aspect ratio : 4:3
Frame rate : 25.000 fps
Standard : PAL
Color space : YUV
Chroma subsampling : 4:2:0
Bit depth : 8 bits
Scan type : Interlaced
Scan order : Top Field First
Bits/(Pixel*Frame) : 0.186
Stream size : 1.09 GiB (92%)

Audio
ID : 192 (0xC0)
Format : MPEG Audio
Format version : Version 1
Format profile : Layer 2
Duration : 1h 22mn
Bit rate mode : Constant
Bit rate : 128 Kbps
Channel(s) : 2 channels
Sampling rate : 48.0 KHz
Video delay : -962ms
Stream size : 75.7 MiB (6%)


Последний раз редактировалось mirango99 05 апр 2011, 22:37, всего редактировалось 1 раз.
Аватара пользователя
mirango99
Vip-релизер
 
Раздал: 5.06 ТБ
Скачал: 61.02 ГБ
Ратио: 85.315
Сообщения: 261
Зарегистрирован: 22 авг 2009, 02:38
Откуда: France
  • Торрент
Автор: mirango99Хэш: ---
Добавлен: 03 апр 2011, 23:37Приватный: Да (DHT отключён)
Статус: Проверен
Размер: 3.69 ГБ (3 956 890 958 байт)
Изменил: Gisher (20 апр 2011, 00:59)
Скачали: 445 (Раздающих: 0%)
Причина:
---
Здоровье: ???%
Сидеров: 0Личеров: 1
Скорость раздачи: 0 байт/секСкорость скачивания: 0 байт/сек
Последний сидер: 15 дней 3 часа 7 минут 21 секунду назадПоследний личер: 14 часов 4 минуты 9 секунд назад

Տաշիր 2011 / Tashir 2011 / Ташир 2011

Сообщение Agrig777 » 04 апр 2011, 00:33

СПАСИБО!!!!!!!!!!!! :good: :good: :hi: :hi:
Аватара пользователя
Agrig777
Администратор
 
Раздал: 6.89 ТБ
Скачал: 23.89 ГБ
Ратио: 295.698
Сообщения: 505
Зарегистрирован: 23 янв 2010, 10:18

Տաշիր 2011 / Tashir 2011 / Ташир 2011

Сообщение СарКо » 04 апр 2011, 17:53

Ребят, скорости нема...прибавьте немного)))заранее благодарен :)
СарКо
 
Раздал: 26.61 ГБ
Скачал: 6.24 ГБ
Ратио: 4.288
Сообщения: 2
Зарегистрирован: 04 апр 2011, 17:47

Տաշիր 2011 / Tashir 2011 / Ташир 2011

Сообщение Aram1995 » 04 апр 2011, 18:12

И вправду скорости прибавте
Aram1995
 
Раздал: 3.79 ГБ
Скачал: 7.37 ГБ
Ратио: 0.521
Сообщения: 1
Зарегистрирован: 04 апр 2011, 18:05

Տաշիր 2011 / Tashir 2011 / Ташир 2011

Сообщение mirango99 » 04 апр 2011, 18:33

Ay jorovurd inets tej gic a darel el sranic avel vonc anem sar pagel em baci sranic. Ay vor duq el razdachi skorostn maximum dneq es el taza qachornerin chem bajni ayl duq ktaq.enenc vor piti ham es ham duq yolla etaq.heto mi moraceq vor treykn nayev duq eq :hi:
Последний раз редактировалось mirango99 04 апр 2011, 18:35, всего редактировалось 1 раз.
Аватара пользователя
mirango99
Vip-релизер
 
Раздал: 5.06 ТБ
Скачал: 61.02 ГБ
Ратио: 85.315
Сообщения: 261
Зарегистрирован: 22 авг 2009, 02:38
Откуда: France

Տաշիր 2011 / Tashir 2011 / Ташир 2011

Сообщение mirango99 » 04 апр 2011, 18:35

Agrig777 писал(а):СПАСИБО!!!!!!!!!!!! :good: :good: :hi: :hi:
charji axpers. :hi:
Аватара пользователя
mirango99
Vip-релизер
 
Раздал: 5.06 ТБ
Скачал: 61.02 ГБ
Ратио: 85.315
Сообщения: 261
Зарегистрирован: 22 авг 2009, 02:38
Откуда: France

Տաշիր 2011 / Tashir 2011 / Ташир 2011

Сообщение caesar » 04 апр 2011, 19:01

:hi: большое спасибо,обязательно скачаю и помогу с раздачей!
Раздаю в частности ночью...
Аватара пользователя
caesar
 
Раздал: 43.49 ГБ
Скачал: 24.86 ГБ
Ратио: 1.801
Сообщения: 29
Зарегистрирован: 13 окт 2009, 11:52

Տաշիր 2011 / Tashir 2011 / Ташир 2011

Сообщение mirango99 » 04 апр 2011, 19:05

caesar :hi: :good:
Аватара пользователя
mirango99
Vip-релизер
 
Раздал: 5.06 ТБ
Скачал: 61.02 ГБ
Ратио: 85.315
Сообщения: 261
Зарегистрирован: 22 авг 2009, 02:38
Откуда: France

Տաշիր 2011 / Tashir 2011 / Ташир 2011

Сообщение mia » 04 апр 2011, 22:09

а как скачать торрент? :)
mia
 
Раздал: 0 байт
Скачал: 0 байт
Ратио: None.
Сообщения: 2
Зарегистрирован: 04 апр 2011, 22:03

Տաշիր 2011 / Tashir 2011 / Ташир 2011

Сообщение mirango99 » 04 апр 2011, 22:15

mia писал(а):а как скачать торрент?

nayi ster. :hi:
Аватара пользователя
mirango99
Vip-релизер
 
Раздал: 5.06 ТБ
Скачал: 61.02 ГБ
Ратио: 85.315
Сообщения: 261
Зарегистрирован: 22 авг 2009, 02:38
Откуда: France

След.

Вернуться в Армянское Музыкальное видео



Кто сейчас на конференции

Сейчас этот форум просматривают: нет зарегистрированных пользователей и гости: 0

croncron