ԱՐՏԱՇ ԱՍԱՏՐՅԱՆԻ ՀԱՄԵՐԳՆ ՑՈԻՑԱԴՐՎԱԾ Հ1-ՈՎ 28/12/2010

Концерты,клипы,музыкальное видео

ԱՐՏԱՇ ԱՍԱՏՐՅԱՆԻ ՀԱՄԵՐԳՆ ՑՈԻՑԱԴՐՎԱԾ Հ1-ՈՎ 28/12/2010

Сообщение mirango99 » 29 дек 2010, 00:25

  • Постеры
  • Скриншоты
Дата выхода: 2010
Оригинальное название: ԱՐՏԱՇ ԱՍԱՏՐՅԱՆԻ ՀԱՄԵՐԳՆ ՑՈԻՑԱԴՐՎԱԾ Հ1-ՈՎ 28/12/2010
Жанр: ՀԱՄԵՐԳ
В ролях: ԱՐՏԱՇ,ԳՐԻՇԱ ԱՍԱՏՐՅԱՆ
Страна: ՀԱՅԱՍՏԱՆ
Продолжительность: 01:36:35
Перевод: Оригинал
Формат аудио: MP3
Формат видео: AVI
Качество: SATRip
Видео: Xvid 720x576 25.00fps
Аудио: MP3 44100Hz stereo 192kbps
Язык: армянский
Дополнительно: ՈԻՇԱՑՈԻՄՈՎ ԵԿԱՄ ՈԻ ԱՅԴ ՊԱՏՃԱՌՈՎ 1ԵՐԳՆ (ՍՈԻՐԲ ՍԱՐԳԻՍՆ) ԲԱՑԱԿԱՅՈԻՄ Է
General
Complete name : C:\Users\Hrachya\Desktop\Concert Artash asatryan H1 2010-12-28 by torrents Gisher.ru.avi
Format : AVI
Format/Info : Audio Video Interleave
Format profile : OpenDML
File size : 1.22 GiB
Duration : 1h 36mn
Overall bit rate : 1 806 Kbps
Writing application : Axara Ltd.

Video
ID : 0
Format : MPEG-4 Visual
Format profile : Advanced Simple@L5
Format settings, BVOP : Yes
Format settings, QPel : No
Format settings, GMC : No warppoints
Format settings, Matrix : Default (MPEG)
Muxing mode : Packed bitstream
Codec ID : XVID
Codec ID/Hint : XviD
Duration : 1h 36mn
Bit rate : 1 599 Kbps
Width : 720 pixels
Height : 576 pixels
Display aspect ratio : 5:4
Frame rate : 25.000 fps
Standard : PAL
Color space : YUV
Chroma subsampling : 4:2:0
Bit depth : 8 bits
Scan type : Progressive
Compression mode : Lossy
Bits/(Pixel*Frame) : 0.154
Stream size : 1.08 GiB (89%)
Writing library : XviD 1.2.1 (UTC 2008-12-04)

Audio
ID : 1
Format : MPEG Audio
Format version : Version 1
Format profile : Layer 3
Mode : Joint stereo
Mode extension : MS Stereo
Codec ID : 55
Codec ID/Hint : MP3
Duration : 18mn 17s
Bit rate mode : Constant
Bit rate : 192 Kbps
Channel(s) : 2 channels
Sampling rate : 44.1 KHz
Compression mode : Lossy
Stream size : 25.1 MiB (2%)
Alignment : Split accross interleaves
Interleave, duration : 138 ms (3.45 video frames)

Последний раз редактировалось mirango99 06 мар 2011, 19:29, всего редактировалось 1 раз.
Аватара пользователя
mirango99
Vip-релизер
 
Раздал: 5.06 ТБ
Скачал: 61.02 ГБ
Ратио: 85.315
Сообщения: 261
Зарегистрирован: 22 авг 2009, 03:38
Откуда: France
  • Торрент
Автор: mirango99Хэш: ---
Добавлен: 29 дек 2010, 00:19Приватный: Да (DHT отключён)
Статус: Проверен
Размер: 1.22 ГБ (1 308 382 618 байт)
Изменил: Agrig777 (29 дек 2010, 00:30)
Скачали: 53 (Раздающих: 0%)
Причина:
---
Здоровье: ???%
Сидеров: 0Личеров: 2
Скорость раздачи: 0 байт/секСкорость скачивания: 0 байт/сек
Последний сидер: НетПоследний личер: 3 дня 14 часов 18 минут 48 секунд назад

ԱՐՏԱՇ ԱՍԱՏՐՅԱՆԻ ՀԱՄԵՐԳՆ ՑՈԻՑԱԴՐՎԱԾ Հ1-ՈՎ 28/12/2010

Сообщение zoob » 29 дек 2010, 13:07

Друг сегодня позвонил спрашивал походу о этом концерте... поставил на кач
Сидер ограмное спасибо! не уходи с раздачи :)
Аватара пользователя
zoob
 
Раздал: 44.94 ГБ
Скачал: 57.64 ГБ
Ратио: 0.853
Сообщения: 13
Зарегистрирован: 18 авг 2010, 17:46

ԱՐՏԱՇ ԱՍԱՏՐՅԱՆԻ ՀԱՄԵՐԳՆ ՑՈԻՑԱԴՐՎԱԾ Հ1-ՈՎ 28/12/2010

Сообщение mirango99 » 29 дек 2010, 13:35

:yes: :good: :hi:
Аватара пользователя
mirango99
Vip-релизер
 
Раздал: 5.06 ТБ
Скачал: 61.02 ГБ
Ратио: 85.315
Сообщения: 261
Зарегистрирован: 22 авг 2009, 03:38
Откуда: France

ԱՐՏԱՇ ԱՍԱՏՐՅԱՆԻ ՀԱՄԵՐԳՆ ՑՈԻՑԱԴՐՎԱԾ Հ1-ՈՎ 28/12/2010

Сообщение mirango99 » 30 дек 2010, 23:49

Jorovurd ov qachel aduq ster sidirovac areq es milionaterin aragutyun tam.naxapes mersiner ;) :hi:
Аватара пользователя
mirango99
Vip-релизер
 
Раздал: 5.06 ТБ
Скачал: 61.02 ГБ
Ратио: 85.315
Сообщения: 261
Зарегистрирован: 22 авг 2009, 03:38
Откуда: France

ԱՐՏԱՇ ԱՍԱՏՐՅԱՆԻ ՀԱՄԵՐԳՆ ՑՈԻՑԱԴՐՎԱԾ Հ1-ՈՎ 28/12/2010

Сообщение zoob » 08 янв 2011, 01:03

Это походу не весь концерт :(
Аватара пользователя
zoob
 
Раздал: 44.94 ГБ
Скачал: 57.64 ГБ
Ратио: 0.853
Сообщения: 13
Зарегистрирован: 18 авг 2010, 17:46

ԱՐՏԱՇ ԱՍԱՏՐՅԱՆԻ ՀԱՄԵՐԳՆ ՑՈԻՑԱԴՐՎԱԾ Հ1-ՈՎ 28/12/2010

Сообщение mirango99 » 08 янв 2011, 02:33

Ete hamergn krknen es anpayman noric skzbic zapis kanem.iharke ete zaranee imanam :hi:
Аватара пользователя
mirango99
Vip-релизер
 
Раздал: 5.06 ТБ
Скачал: 61.02 ГБ
Ратио: 85.315
Сообщения: 261
Зарегистрирован: 22 авг 2009, 03:38
Откуда: France

ԱՐՏԱՇ ԱՍԱՏՐՅԱՆԻ ՀԱՄԵՐԳՆ ՑՈԻՑԱԴՐՎԱԾ Հ1-ՈՎ 28/12/2010

Сообщение Ю РОК » 01 фев 2011, 21:22

Спасибо Вам огромное!!!
Ю РОК
 
Раздал: 2.72 ГБ
Скачал: 12.96 ГБ
Ратио: 0.231
Сообщения: 2
Зарегистрирован: 30 янв 2011, 23:23

ԱՐՏԱՇ ԱՍԱՏՐՅԱՆԻ ՀԱՄԵՐԳՆ ՑՈԻՑԱԴՐՎԱԾ Հ1-ՈՎ 28/12/2010

Сообщение mirango99 » 01 фев 2011, 22:01

Ю РОК :good: :hi:
Аватара пользователя
mirango99
Vip-релизер
 
Раздал: 5.06 ТБ
Скачал: 61.02 ГБ
Ратио: 85.315
Сообщения: 261
Зарегистрирован: 22 авг 2009, 03:38
Откуда: France


Вернуться в Армянское Музыкальное видео



Кто сейчас на конференции

Сейчас этот форум просматривают: нет зарегистрированных пользователей и гости: 0

cron